Yung MelloLet It Breathe - Single Hip-Hop/Rap, Alternative Rap | Waves All Plugins Bundle | Kel O#39Neill
 
Danny Morris - Essential Rock Grooves for Bass
Danny Morris - Essential Rock Grooves for Bass
DVD5 | English | VIDEO_TS + PDF | 720 x 480 | MPEG2 ~7411 kbps | 29.970 fps
AC-3 192 Kbps 48.0 KHz | 2 channel | 00:32:08 | 2.86 GB
Genre: eLearning Video / Guitar lesson


Learn how to lock into an airtight groove with Berklee professor and versatile bassman Danny Morris. In this Berklee Workshop, Morris gives you techniques to help you anchor your band with solid foundation of bass lines, chord progressions and rhythmic and harmonic variations.
Working with and without a drum machine, Morris breaks down the secrets of syncopation, rhythmic displacement, left-hand muting, and more. His practical lessons will help you build your bass vocabulary, play with more variety and character, and keep your grooves in the pocket.

General
Complete name : VTS_13_1.VOB
Format : MPEG-PS
File size : 131 MiB
Duration : 2 min 22 s
Overall bit rate mode : Variable
Overall bit rate : 7 758 kb/s

Video
ID : 224 (0xE0)
Format : MPEG Video
Format version : Version 2
Format profile : [email protected]
Format settings : BVOP
Format settings, BVOP : Yes
Format settings, Matrix : Default
Format settings, GOP : M=3, N=15
Format settings, picture structure : Frame
Duration : 2 min 22 s
Bit rate mode : Variable
Bit rate : 7 411 kb/s
Maximum bit rate : 7 800 kb/s
Width : 720 pixels
Height : 480 pixels
Display aspect ratio : 4:3
Frame rate : 29.970 (30000/1001) FPS
Standard : NTSC
Color space : YUV
Chroma subsampling : 4:2:0
Bit depth : 8 bits
Scan type : Interlaced
Scan order : Bottom Field First
Compression mode : Lossy
Bits/(Pixel*Frame) : 0.716
Time code of first frame : 00:00:00:00
Time code source : Group of pictures header
GOP, Open/Closed : Closed
Stream size : 125 MiB (96%)
Color primaries : BT.601 NTSC
Transfer characteristics : BT.601
Matrix coefficients : BT.601

Audio
ID : 189 (0xBD)-128 (0x80)
Format : AC-3
Format/Info : Audio Coding 3
Muxing mode : DVD-Video
Duration : 2 min 22 s
Bit rate mode : Constant
Bit rate : 192 kb/s
Channel(s) : 2 channels
Channel positions : Front: L R
Sampling rate : 48.0 kHz
Frame rate : 31.250 FPS (1536 SPF)
Bit depth : 16 bits
Compression mode : Lossy
Stream size : 3.25 MiB (2%)
Service kind : Complete Main


Danny Morris - Essential Rock Grooves for Bass

Download link:

Download From Rapidgator.net
http://rapidgator.net/file/693897fcfd9d9af43493e4df75402a8c/sy3ge.Danny.Morris..Essential.Rock.Grooves.for.Bass.part1.rar.html
http://rapidgator.net/file/8076668c140d4ea3d4a179c48a2b4cc5/sy3ge.Danny.Morris..Essential.Rock.Grooves.for.Bass.part2.rar.html
http://rapidgator.net/file/41e7fc07f84622de629e70bf69d05dd8/sy3ge.Danny.Morris..Essential.Rock.Grooves.for.Bass.part3.rar.html
http://rapidgator.net/file/cf5253fe286a05de104648a789de5a65/sy3ge.Danny.Morris..Essential.Rock.Grooves.for.Bass.part4.rar.html
http://rapidgator.net/file/ce3813f86aba6d7e3bfac939ef5c3b95/sy3ge.Danny.Morris..Essential.Rock.Grooves.for.Bass.part5.rar.html
http://rapidgator.net/file/2362ea5cfa2271a8e79e7989a9b1a1a3/sy3ge.Danny.Morris..Essential.Rock.Grooves.for.Bass.part6.rar.html

Download From Turbobit.net
http://turbobit.net/rojoxsy2axzz/sy3ge.Danny.Morris..Essential.Rock.Grooves.for.Bass.part1.rar.html
http://turbobit.net/wdthvtzo6v80/sy3ge.Danny.Morris..Essential.Rock.Grooves.for.Bass.part2.rar.html
http://turbobit.net/ujpkxkl738r7/sy3ge.Danny.Morris..Essential.Rock.Grooves.for.Bass.part3.rar.html
http://turbobit.net/rk09nxzbnrof/sy3ge.Danny.Morris..Essential.Rock.Grooves.for.Bass.part4.rar.html
http://turbobit.net/0ntilb01x98e/sy3ge.Danny.Morris..Essential.Rock.Grooves.for.Bass.part5.rar.html
http://turbobit.net/39j7ftna10zk/sy3ge.Danny.Morris..Essential.Rock.Grooves.for.Bass.part6.rar.html

Download From Uploadgig.com
http://uploadgig.com/file/download/eff337954DAEf2dc/sy3ge.Danny.Morris..Essential.Rock.Grooves.for.Bass.part1.rar
http://uploadgig.com/file/download/123be8C88d3a41Df/sy3ge.Danny.Morris..Essential.Rock.Grooves.for.Bass.part2.rar
http://uploadgig.com/file/download/2b0f5310336da5a4/sy3ge.Danny.Morris..Essential.Rock.Grooves.for.Bass.part3.rar
http://uploadgig.com/file/download/B9c08C60eabfFe82/sy3ge.Danny.Morris..Essential.Rock.Grooves.for.Bass.part4.rar
http://uploadgig.com/file/download/957e70f10b6Bc970/sy3ge.Danny.Morris..Essential.Rock.Grooves.for.Bass.part5.rar
http://uploadgig.com/file/download/17a18b1376c949cD/sy3ge.Danny.Morris..Essential.Rock.Grooves.for.Bass.part6.rar

Links are Interchangeable - No Password - Single Extraction
Dear visitor, you went to the site as unregistered user.
We recommend that you create or enter the site your name.
 

|||||||

«    November 2018    »
MonTueWedThuFriSatSun
 1234
567891011
12131415161718
19202122232425
2627282930 

UploadGIG.com